» » Mongo Santamaria Y Su Orquesta - ¡Sabroso! Charanga Y Pachanga

Mongo Santamaria Y Su Orquesta - ¡Sabroso! Charanga Y Pachanga FLAC album

Afro Cuban tradition, good jazz and brilliant musicians were just three of the elements that makes Mongo Santamaria "Sabroso!" one of the greatest charanga.

Текст песни: Hear my D to the E to the L to the U to the X to the E to the top Smacking. This fine place right to the ground Hear my D to the E to the L to the U to the X to the E DONT STOP! Smacking. This fine place right to the.

Complete your Mongo Santamaria Y Su Orquesta collection. Mongo Santamaria Y Su Orquesta ‎– ¡Sabroso! Charanga Y Pachanga. Sabroso! Charanga Y Pachanga ‎(LP, Album, Mono, Lam).

Mongo Santamaria, Mongo Santamaría y Su Orquesta: best 2 tracks. Mongo Santamaria - Naked Live At Yankee Stadium, 2009 04:05. Mongo Santamaria - Coyulde Live At Yankee Stadium, 2009 05:19. Artist: Mongo Santamaria Mongo Santamaría y Su Orquesta.

Artist: Mongo Santamaria Y Su Orquesta Title Of Album: Sabroso! Year Of Release: 1960 (1993) Label: OJC/Fantasy (OJC 281-2) Country: Cuba (Havana) Genre: Afro-Cuban Jazz, Latin Jazz Quality: FLAC (tracks+. Tracklist: 01. Que Maravolloso (2:49) 02. En La Felicidad (2:10) 03. Pachanga Pa Ti (2:24) 04. Tulibamba (4:01) 05. Mambo de Cuco (3:56) 06.

Mongo Santamaria - Olga Pachanga 03:34 Arriba! Mongo Santamaria - Pachanga Pa' Ti 02:23 Life of Percussion. Mongo Santamaria, Mongo Santamaría y Su Orquesta - Pachanga Pa Ti 02:23 Afro Blue. Mongo Santamaria - Pachanga Pa Ti 02:23 100% Mongo Santamaría. Mongo Santamaria - Pachanga Pa Ti 02:22 Definitive Mongo Santamaria, Vol. 2. Mongo Santamaria - Pachanga Pa Ti 02:22 The Best Of Mongo Santamaria, Vol. 1. Mongo Santamaria - Pachanga Pa Ti 02:22 Mongo's Hour, Vol. Mongo Santamaria - Pachanga Pa Ti 02:23 Mongo's Theme. Mongo Santamaria - Pachanga Twist 03:22 Latin On Air. Mongo.

Mongo Santamaría y Su Orquesta Pachanga Pa Ti. (play). Mongo Santamaría y Su Orquesta Guaguanco Mania. Mongo Santamaría y Su Orquesta El Bote. Mongo Santamaría y Su Orquesta Pito Pito.

Pachanga Pa Ti. 2:230:30. Listen to Sabroso! in full in the this site app. Play on this site.

December 2009, 2:14 Mongo Santamaria, Sabroso! Used drive : PLEXTOR CD-R PREMIUM2 Adapter: 1 ID: 1 Read mode : Secure Utilize accurate stream : Yes Defeat audio cache : Yes Make use of C2 pointers : No Read offset correction : 30 Overread into Lead-In and Lead-Out : No Fill up missing offset samples with silence : Yes Delete leading and trailing silent blocks : No Null samples used in CRC calculations : Ye. 03 - Pachanga Pa T. lac" WAVE INDEX 01 00:00:00 TRACK 04 AUDIO TITLE "Tulibamba" PERFORMER "Mongo Santamaria" INDEX 00 02:20:37 FILE "04 - Tulibamba. flac" WAVE INDEX 01 00:00:00 TRACK 05 AUDIO TITLE "Mambo de Cuco" PERFORMER "Mongo Santamaria" INDEX 00 03:57:58 FILE "05 - Mambo de Cuco. flac" WAVE INDEX 01 00:00:00 TRACK 06.

Skin On Skin: Mongo Santamaria Anthology 1958-1995 CD2 1999. Drums & Chants (Vinyl) 1978. Mas Sabroso (Vinyl) 1961. Ubane (With Justo) (Vinyl) 1976. Blackout (Remastered 2006) 1970. At The Black Hawk 1994. Pachanga Pa' Ti. 02:21.

Mongo Santamaria Y Su Orquesta - ¡Sabroso! Charanga Y Pachanga FLAC album

Performer: Mongo Santamaria Y Su Orquesta

Title: ¡Sabroso! Charanga Y Pachanga

Date of release: 1960

Style: Guaguancó, Cha-Cha, Descarga, Latin Jazz, Charanga

Genre: Jazz / Latin

Size MP3: 1920 mb

Size FLAC: 1359 mb

Rating: 4.4 / 5

Votes: 388

Other Formats: MMF AAC AA APE AU VQF VOX

Related to Mongo Santamaria Y Su Orquesta - ¡Sabroso! Charanga Y Pachanga Albums