» » Mel Tormé - South Of The Border

Mel Tormé - South Of The Border FLAC album

Melvin Howard Tormé (September 13, 1925 – June 5, 1999), nicknamed The Velvet Fog, was an American musician, best known as a singer of jazz standards.

Mel Torme The Christmas Song (Chestnuts Roasting On An Open Fire). play) (pause) (download) (fb) (vk) (tw). Mel Torme A Day In The Life Of Bonnie And Clyde.

Album · 1959 · 12 Songs. See All. Christmas Songs. 16 Most Requested Songs: Mel Tormé.

Mel Tormé – vocals, drums. Frank Beach – trumpet. An album is a collection of audio recordings issued as a collection on compact disc, vinyl, audio tape, or another medium. Albums of recorded music were developed in the early 20th century as individual 78-rpm records collected in a bound book resembling a photograph album; this format evolve. arly record albums were multiple 78rpm discs packaged in book form, like a photograph album. A vinyl LP on a turntable.

Melvin Howard Tormé (September 13, 1925 – June 5, 1999), nicknamed The Velvet Fog, was an American musician, known for his jazz singing. He was also a jazz composer and arranger, drummer, pianist, and actor in radio, film, and television, and the author of five books. He composed the music for th. ore . Year: 1959.

Michael Carr, Jimmy Kennedy. Billy May, Mel Tormé.

Треклист: Mel Tormé – ¡Ole Tormé! . 51 0 11975 2 2:39. wav" WAVE INDEX 01 00:00:00 TRACK 11 AUDIO TITLE "The Rhumba Jumps" PERFORMER "Mel Torme" INDEX 00 02:04:45 FILE "11 - The Rhumba Jumps. wav" WAVE INDEX 01 00:00:00 TRACK 12 AUDIO TITLE "Vaya Con Dios" PERFORMER "Mel Torme" INDEX 00 02:10:60 FILE "12 - Vaya Con Dios. wav" WAVE INDEX 01 00:00:00.

Right Now! is a 1966 studio album by Mel Tormé. Columbia followed up Tormé's 1965 album of standards with "an obvious bid to sell records by putting Tormé's voice on pre-sold hits of the mid-'60s.

Tracklist

At The Cross Roads
Frensi
Adios
Baia
Six Lessons From Madame La Zonga
La Rosita
South Of The Border
Nina
Cuban Love Song
Perfidia
The Rhumba Jumps
Vaya Con Dios

Versions

Category Artist Title (Format) Label Category Country Year
T388, T. 388 Mel Tormé South Of The Border ‎(LP, Album, Mono, Club) World Record Club, World Record Club T388, T. 388 UK 1965
T388, T. 388 Mel Tormé South Of The Border ‎(LP, Album, Mono, Club) World Record Club, World Record Club T388, T. 388 UK 1965
TT 388 Mel Tormé South Of The Border ‎(Reel, 4tr Mono, 5" Reel, Album, Club) World Record Club TT 388 UK 1965

Mel Tormé - South Of The Border FLAC album

Performer: Mel Tormé

Title: South Of The Border

Country: UK

Date of release: 1965

Style: Easy Listening

Genre: Jazz / Pop

Size MP3: 1670 mb

Size FLAC: 1635 mb

Rating: 4.7 / 5

Votes: 857

Other Formats: MP1 VQF AUD ASF APE VOC MPC

Related to Mel Tormé - South Of The Border Albums